<?xml version="1.0" standalone="no"?>
<!DOCTYPE svg PUBLIC "-//W3C//DTD SVG 1.1//EN" "http://www.w3.org/Graphics/SVG/1.1/DTD/svg11.dtd" >
<svg xmlns="http://www.w3.org/2000/svg">
<metadata>Generated by IcoMoon</metadata>
<defs>
<font id="stmicons" horiz-adv-x="1024">
<font-face units-per-em="1024" ascent="960" descent="-64" />
<missing-glyph horiz-adv-x="1024" />
<glyph unicode="&#x20;" horiz-adv-x="512" d="" />
<glyph unicode="&#xd6000;" glyph-name="viral_latest" d="M512 917.337c-259.208 0-469.337-210.129-469.337-469.337s210.129-469.337 469.337-469.337c259.208 0 469.337 210.129 469.337 469.337v0c0 259.208-210.129 469.337-469.337 469.337v0zM512 95.997c-194.406 0-352.003 157.597-352.003 352.003s157.597 352.003 352.003 352.003c194.406 0 352.003-157.597 352.003-352.003v0c-0.24-194.309-157.693-351.762-351.979-352.003h-0.024zM629.898 448h-88.564c-16.2 0-29.334 13.133-29.334 29.334v0 88.564c0 32.090-26.014 58.104-58.104 58.104v0h-1.173c-32.070-0.027-58.057-26.031-58.057-58.104v0-177.175c0-32.064 25.993-58.057 58.057-58.057h177.175c0.014 0 0.030 0 0.047 0 32.064 0 58.057 25.993 58.057 58.057v1.173c0 32.090-26.014 58.104-58.104 58.104v0z" />
<glyph unicode="&#xd6001;" glyph-name="viral_hot" d="M459.463-56.032c-0.953-0.010-2.079-0.016-3.206-0.016-181.435 0-328.517 147.082-328.517 328.517 0 136.001 82.643 252.7 200.449 302.618l2.153 0.81c-41.905-88.225 128.546-103.49 119.186 4.8-4.8 54.481-28.032 83.617-28.032 161.091 9.042 85.872 52.513 160.116 116.151 209.683l0.683 0.512c-5.31-15.528-8.376-33.417-8.376-52.023 0-30.644 8.316-59.345 22.814-83.971l-0.422 0.776c111.506-180.579 343.541-290.117 343.541-535.4-2.022-180.018-142.935-326.483-320.499-337.35l-0.963-0.047c198.003 72.001 161.811 274.18 122.114 345.605-9.984-86.641-83.569-158.402-144.338-154.85 101.666 102.002 112.178 303.653-49.057 438.871 74.785-242.164-148.802-250.516-157.49-445.015-2.112-52.705 18.576-117.026 113.81-184.611z" />
<glyph unicode="&#xd6002;" glyph-name="viral_popular" d="M512 938.667l-168.747-308.395-343.211-66.432 238.933-257.024-43.349-349.44 316.416 149.333 316.373-149.333-43.349 349.44 238.933 257.024-343.253 66.432-168.747 308.395zM512 721.067l101.675-181.803 206.805-39.168-143.957-151.509 26.155-206.037-190.677 88.363-190.677-88.192 26.112 206.037-143.957 151.509 206.805 39.168 101.717 181.632z" />
<glyph unicode="&#xd6003;" glyph-name="viral_trending" d="M945.009 615.166c-53.543 192.201-227.040 330.881-432.927 330.881-40.378 0-79.509-5.334-116.729-15.335l3.138 0.718c-193.568-49.85-334.293-222.846-334.293-428.709 0-156.947 81.793-294.79 205.078-373.228l1.793-1.066-117.964-178.141 472.355 123.041c193.532 50.065 334.171 223.123 334.171 429.028 0 40.107-5.336 78.967-15.336 115.91l0.714-3.098zM705.098 546.080l-149.322-153.254-114.48 76.652-130.906-147.878-63.213 55.050 178.689 202.928 117.964-78.842 87.104 90.688-66.697 41.014 197.603 66.946 12.941-196.458z" />
<glyph unicode="&#xd6004;" glyph-name="viral_share" d="M787.692 566.154c-50.748 0.196-95.801 24.405-124.413 61.848l-0.279 0.38-270.887-163.446c1.104-5.275 1.735-11.336 1.735-17.545 0-6.62-0.718-13.071-2.081-19.282l0.109 0.593 264.98-168.566c28.683 42.333 76.553 69.787 130.836 69.787 87.006 0 157.538-70.532 157.538-157.538s-70.532-157.538-157.538-157.538c-86.98 0-157.495 70.489-157.538 157.459v0.004c0 3.938 0.866 7.483 1.142 11.422l-268.958 170.535c-29.025-38.804-74.864-63.652-126.506-63.652-87.006 0-157.538 70.532-157.538 157.538s70.532 157.538 157.538 157.538c52.63 0 99.232-25.808 127.841-65.459l0.319-0.464 268.367 161.871c-1.161 6.462-1.954 14.064-2.199 21.803l-0.006 0.252c0 87.006 70.532 157.538 157.538 157.538s157.538-70.532 157.538-157.538c0-87.006-70.532-157.538-157.538-157.538v0zM787.692 93.538c43.503 0 78.769 35.266 78.769 78.769s-35.266 78.769-78.769 78.769c-43.503 0-78.769-35.266-78.769-78.769v0c0-43.503 35.266-78.769 78.769-78.769v0zM236.308 526.769c-43.503 0-78.769-35.266-78.769-78.769s35.266-78.769 78.769-78.769c43.503 0 78.769 35.266 78.769 78.769v0c0 43.503-35.266 78.769-78.769 78.769v0zM787.692 802.462c-43.503 0-78.769-35.266-78.769-78.769s35.266-78.769 78.769-78.769c43.503 0 78.769 35.266 78.769 78.769v0c0 43.503-35.266 78.769-78.769 78.769v0z" />
<glyph unicode="&#xd6005;" glyph-name="viral_arrow_solid_left" d="M512 960v0c-282.77 0-512-229.23-512-512v0c0-282.77 229.23-512 512-512s512 229.23 512 512c0 282.77-229.23 512-512 512zM512 896c247.424 0 448-200.576 448-448s-200.576-448-448-448c-247.424 0-448 200.576-448 448v0c0 247.424 200.576 448 448 448v0zM608.256 285.76l-164.416 162.24 164.416 162.24-45.696 45.44-210.080-207.68 210.080-207.36z" />
<glyph unicode="&#xd6006;" glyph-name="viral_arrow_solid_right" d="M512 960v0c-282.77 0-512-229.23-512-512v0c0-282.77 229.23-512 512-512s512 229.23 512 512c0 282.77-229.23 512-512 512zM512 896c247.424 0 448-200.576 448-448s-200.576-448-448-448c-247.424 0-448 200.576-448 448v0c0 247.424 200.576 448 448 448v0zM415.68 285.76l164.48 162.24-164.48 162.24 45.76 45.44 210.24-207.68-210.24-207.36z" />
<glyph unicode="&#xd6007;" glyph-name="viral_clock" d="M512 874.667c-235.641 0-426.667-191.025-426.667-426.667s191.025-426.667 426.667-426.667c235.641 0 426.667 191.025 426.667 426.667v0c0 235.641-191.025 426.667-426.667 426.667v0zM512 128c-176.731 0-320 143.269-320 320s143.269 320 320 320c176.731 0 320-143.269 320-320v0c-0.218-176.643-143.357-319.781-319.979-320h-0.021zM619.179 448h-80.512c-14.728 0-26.667 11.939-26.667 26.667v0 80.512c0 29.172-23.649 52.821-52.821 52.821v0h-1.067c-29.154-0.024-52.779-23.664-52.779-52.821v0-161.067c0-29.149 23.63-52.779 52.779-52.779h161.067c0.013 0 0.028 0 0.043 0 29.149 0 52.779 23.63 52.779 52.779v1.067c0 29.172-23.649 52.821-52.821 52.821v0z" />
<glyph unicode="&#xd6008;" glyph-name="viral_close" d="M1023.915 26.27l-90.143-90.143-423.77 423.897-420.2-420.030-89.803 89.803 420.030 420.2-420.030 419.86 90.143 90.143 419.86-420.030 420.115 420.030 89.888-89.888-420.030-420.115z" />
<glyph unicode="&#xd6009;" glyph-name="viral_comments" d="M945.231 211.692c0-21.752-17.633-39.385-39.385-39.385v0h-157.538v-196.923l-256 196.923h-374.154c-21.752 0-39.385 17.633-39.385 39.385v0 590.769c0 21.752 17.633 39.385 39.385 39.385v0h787.692c21.752 0 39.385-17.633 39.385-39.385v0-590.769zM866.462 763.077h-708.923v-512h354.462l157.538-118.154v118.154h196.923v512zM315.077 369.231v78.769h393.846v-78.769h-393.846zM315.077 644.923h393.846v-78.769h-393.846v78.769z" />
<glyph unicode="&#xd600a;" glyph-name="viral_envelope" d="M64 832v0c-35.346 0-64-28.654-64-64v-640c0-35.346 28.654-64 64-64h896c35.346 0 64 28.654 64 64v640c0 35.346-28.654 64-64 64h-896zM128 704h768v-512h-768v512zM192 704l320-256 320 256h64v-64l-384-320-384 320v64h64z" />
<glyph unicode="&#xd600b;" glyph-name="viral_eye" d="M512 132.923c-273.684 0-487.030 282.585-496.246 293.73l-15.754 21.346 15.754 21.346c9.216 11.185 222.562 293.73 496.246 293.73s487.030-281.521 496.246-293.73l15.754-21.346-15.754-21.346c-9.216-11.146-222.562-293.73-496.246-293.73zM91.569 448c53.090-63.015 224.768-243.909 420.431-243.909 196.687 0 367.34 180.933 420.431 243.948-53.090 62.976-223.744 243.909-420.431 243.909s-367.34-180.933-420.431-243.948zM512 235.599c-0.569-0.005-1.241-0.008-1.914-0.008-117.949 0-213.776 94.718-215.566 212.241l-0.002 0.168c2.836 117.955 99.129 212.491 217.502 212.491s214.665-94.537 217.497-212.228l0.005-0.263c-1.792-117.692-97.619-212.41-215.568-212.41-0.687 0-1.373 0.003-2.058 0.010l0.105-0.001zM512 589.312c-76.591-1.872-137.964-64.405-137.964-141.272 0-78.044 63.268-141.312 141.312-141.312 78.031 0 141.289 63.245 141.312 141.27v0.002c-0.772 78.217-64.358 141.326-142.684 141.326-0.695 0-1.388-0.005-2.080-0.015l0.105 0.001z" />
<glyph unicode="&#xd600c;" glyph-name="viral_iphone" d="M832-64h-640c-35.346 0-64 28.654-64 64v0 896c0 35.346 28.654 64 64 64v0h640c35.346 0 64-28.654 64-64v0-896c0-35.346-28.654-64-64-64v0zM448 0h128v128h-128v-128zM768 832h-512v-640h512v640z" />
<glyph unicode="&#xd600d;" glyph-name="viral_loupe" d="M996.267-36.309c-36.267-36.352-41.813-36.352-78.507 0l-222.293 222.293c-67.413-43.349-174.080-95.872-260.267-95.872-0.127 0-0.277 0-0.427 0-240.354 0-435.2 194.846-435.2 435.2s194.846 435.2 435.2 435.2c240.354 0 435.2-194.845 435.2-435.199v-0.001c0-86.315-52.48-192.981-96-260.651l222.293-222.293c36.693-36.523 36.693-42.368 0-78.677zM435.2 866.389c-188.665-0.049-341.589-153.003-341.589-341.675 0-188.702 152.973-341.675 341.675-341.675s341.675 152.973 341.675 341.675v0c0 0.102 0 0.222 0 0.342 0 188.513-152.82 341.333-341.333 341.333-0.15 0-0.3 0-0.45 0h0.024z" />
<glyph unicode="&#xd600e;" glyph-name="viral_news" d="M255.765 959.787v-767.573c0-35.346-28.654-64-64-64v0c-17.673 0-32-14.327-32-32s14.327-32 32-32v0c70.692 0 128 57.308 128 128v0 703.36h640.427v-735.36c-0.109-88.389-71.788-160-160.192-160 0 0 0 0 0 0h-608.213c-70.658 0.085-127.915 57.342-128 127.992v543.581c0 17.673-14.327 32-32 32s-32-14.327-32-32v0-543.573c0.122-105.947 86.036-191.787 192-191.787 0 0 0 0 0 0h608.32c0.051 0 0.111 0 0.171 0 123.637 0 223.878 100.167 224 223.775v799.585h-768.512zM415.765 799.787v-223.787h224.235v223.787h-224.149zM575.957 639.787h-96v96h96.043v-96zM703.957 767.787h160v-64h-160v64zM703.957 639.787h160v-64h-160v64zM415.851 512h448.149v-64.213h-448.149v64.213zM415.851 384h448.149v-64h-448.149v64zM415.851 256h256.149v-64h-256.149v64zM191.68 799.787c0 0.032 0 0.069 0 0.107 0 17.673-14.327 32-32 32-17.636 0-31.939-14.266-32-31.888v-576.006c0.061-17.627 14.364-31.894 32-31.894 17.673 0 32 14.327 32 32 0 0.038 0 0.075 0 0.112v-0.006 575.573z" />
<glyph unicode="&#xd600f;" glyph-name="viral_pin" d="M512 960c-0.381 0.001-0.831 0.002-1.282 0.002-246.267 0-445.991-199.276-446.718-445.373v-0.069c0-353.92 321.28-531.84 416.64-572.8 7.503-3.568 16.295-5.684 25.574-5.76h0.026c1.92 0 3.84 0.64 5.76 0.64s3.84-0.64 5.76-0.64c9.305 0.076 18.097 2.192 25.977 5.92l-0.377-0.16c95.36 40.96 416.64 218.88 416.64 572.8-0.727 246.166-200.451 445.442-446.718 445.442-0.451 0-0.901-0.001-1.352-0.002h0.070zM517.76 71.040c-1.92 0.64-3.84 1.92-5.76 2.56-1.92-0.64-3.84-1.92-5.76-2.56-81.92 40.96-314.24 181.76-314.24 443.52 0 176.731 143.269 320 320 320s320-143.269 320-320v0c0-261.76-232.32-402.56-314.24-443.52zM512 640c-70.692 0-128-57.308-128-128s57.308-128 128-128c70.692 0 128 57.308 128 128v0c0 70.692-57.308 128-128 128v0 0z" />
<glyph unicode="&#xd6010;" glyph-name="viral_play" d="M60.235 960v-1023.699l903.228 512zM843.294 448l-722.824-406.588v813.176z" />
<glyph unicode="&#xd6011;" glyph-name="viral_play_solid" d="M512 960v0c-282.77 0-512-229.23-512-512v0c0-282.77 229.23-512 512-512s512 229.23 512 512c0 282.77-229.23 512-512 512zM725.094 448.341l-341.333-192.171v384.341z" />
<glyph unicode="&#xd6012;" glyph-name="viral_printer" d="M960 64h-128v-128h-640v128h-128c-0.001 0-0.002 0-0.003 0-35.346 0-64 28.654-64 64 0 0.225 0.001 0.45 0.003 0.674v-0.034 575.36c0 35.346 28.654 64 64 64v0h128v192h640v-192h128c35.346 0 64-28.654 64-64v0-575.36c0.002-0.19 0.003-0.415 0.003-0.64 0-35.346-28.654-64-64-64-0.001 0-0.002 0-0.003 0v0zM320 64h384v128h-384v-128zM704 832h-384v-64h384v64zM896 640h-768v-448h64v128h640v-128h64v448zM704 512h64v-64h-64v64zM576 512h64v-64h-64v64z" />
</font>
</defs>
</svg>
